<?xml version="1.0" encoding="UTF-8" standalone="no"?>
<svg
   xml:space="preserve"
   width="40.621666mm"
   height="40.6217mm"
   version="1.1"
   style="clip-rule:evenodd;fill-rule:evenodd;image-rendering:optimizeQuality;shape-rendering:geometricPrecision;text-rendering:geometricPrecision"
   viewBox="0 0 4062.1665 4062.17"
   id="svg122"
   xmlns="http://www.w3.org/2000/svg"
   xmlns:svg="http://www.w3.org/2000/svg"> <defs
   id="defs78"> <font
   id="FontID1"
   font-variant="normal"
   style="fill-rule:nonzero"
   font-weight="700"
   vert-origin-x="512"
   vert-origin-y="768"
   vert-adv-y="1024"
   horiz-origin-x="0"
   horiz-origin-y="0"
   horiz-adv-x="1024"> <glyph
   unicode="-"
   d="M86.0032 327.003l247.998 0 0 -124.006 -247.998 0 0 124.006z"
   id="glyph8" /> <glyph
   unicode="B"
   d="M81.0008 0l0 717.997 113.334 0c65.8356,0 113.829,-4.16272 144.332,-12.6604 43.1703,-11.5049 77.4983,-32.6702 102.999,-63.503 25.5002,-30.9979 38.3329,-67.5006 38.3329,-109.501 0,-27.3304 -5.82781,-52.1632 -17.3327,-74.4983 -11.4977,-22.3351 -30.3304,-43.3353 -56.3331,-62.8355 43.5004,-20.4978 75.338,-45.998 95.4985,-76.8309 20.1677,-30.6678 30.1725,-66.9982 30.1725,-108.999 0,-40.3353 -10.5001,-77.0031 -31.3352,-110.169 -21.0002,-33.1654 -48.0005,-57.9982 -81.0008,-74.3332 -33.0003,-16.5002 -78.5031,-24.6677 -136.666,-24.6677l-202 0zm135.999 587.998l0 -151.997 30.5027 0c33.9979,0 59.3331,6.99767 75.8333,21.1653 16.5002,14.0025 24.6677,33.1654 24.6677,57.3307 0,22.5002 -7.8374,40.3353 -23.505,53.6704 -15.6676,13.1628 -39.4956,19.8303 -71.4983,19.8303l-36.0003 0zm0 -274l0 -183.999 34.6654 0c57.5029,0 96.3382,7.16993 116.334,21.5026 20.0026,14.3327 30.0003,35.1678 30.0003,62.4982 0,30.8328 -11.6628,55.3355 -35.1678,73.1706 -23.4978,17.8279 -62.4982,26.828 -117.001,26.828l-28.8304 0z"
   id="glyph10" /> <glyph
   unicode="D"
   d="M82.9866 718.015l161.85 0c104.341,0 181.842,-12.9966 232.65,-38.8425 50.6977,-25.8459 92.5224,-67.8546 125.364,-126.174 32.8044,-58.1716 49.1514,-126.174 49.1514,-204.006 0,-55.3367 -9.16756,-106.145 -27.5027,-152.498 -18.3351,-46.3164 -43.8496,-84.8275 -76.1754,-115.496 -32.3258,-30.4849 -67.3392,-51.6549 -105.003,-63.5102 -37.6643,-11.6711 -102.979,-17.4883 -195.98,-17.4883l-164.353 0 0 718.015zm136.004 -132.028l0 -453.002 63.3261 0c62.5161,0 107.691,7.17941 135.857,21.5014 28.1654,14.3588 51.1763,38.5111 68.996,72.3464 17.8197,33.8353 26.84,75.5127 26.84,125.179 0,76.1386 -21.3541,135.304 -63.8415,177.313 -38.327,37.8484 -99.9963,56.6621 -184.824,56.6621l-46.3532 0z"
   id="glyph12" /> <glyph
   unicode="E"
   d="M82.9866 718.015l391.996 0 0 -134.016 -255.992 0 0 -129.009 255.992 0 0 -131.991 -255.992 0 0 -188.984 255.992 0 0 -134.016 -391.996 0 0 718.015z"
   id="glyph14" /> <glyph
   unicode="F"
   d="M84.0008 717.997l355.999 0 0 -131.994 -220 0 0 -131.004 220 0 0 -132.001 -220 0 0 -322.998 -135.999 0 0 717.997z"
   id="glyph16" /> <glyph
   unicode="I"
   d="M72.0007 717.997l135.999 0 0 -717.997 -135.999 0 0 717.997z"
   id="glyph18" /> <glyph
   unicode="J"
   d="M260.005 718.015l136.998 0 0 -476.345c0,-75.844 -6.00125,-129.009 -18.0038,-159.677 -12.0025,-30.4849 -31.8471,-54.8213 -59.3498,-72.825 -27.6499,-18.151 -60.6384,-27.1713 -99.3336,-27.1713 -78.6422,0 -145.834,34.6821 -201.318,104.009l98.1554 92.4855c21.6855,-24.815 40.1679,-41.3092 55.3367,-49.8141 15.3529,-8.50484 30.0063,-12.6652 44.3283,-12.6652 14.5061,0 25.3304,6.14852 32.5098,18.4824 7.17941,12.3339 10.6771,39.5052 10.6771,81.5139l0 502.007z"
   id="glyph20" /> <glyph
   unicode="M"
   d="M150.834 717.997l132.496 0 167.169 -500.833 168.002 500.833 132.166 0 120.331 -717.997 -131.829 0 -76.673 453.5 -151.997 -453.5 -120.669 0 -151.329 453.5 -78.1658 -453.5 -133.336 0 123.834 717.997z"
   id="glyph22" /> <glyph
   unicode="N"
   d="M82.9866 718.015l129.671 0 309.341 -472.516 0 472.516 136.004 0 0 -718.015 -130.665 0 -308.347 471.006 0 -471.006 -136.004 0 0 718.015z"
   id="glyph24" /> <glyph
   unicode="O"
   d="M420.493 735.982c101.506,0 188.837,-36.8175 261.846,-110.305 73.1564,-73.5245 109.679,-163.175 109.679,-268.841 0,-104.819 -36.0075,-193.513 -108.17,-266.006 -72.015,-72.4936 -159.53,-108.833 -262.361,-108.833 -107.802,0 -197.305,37.3329 -268.473,111.852 -71.3523,74.4818 -107.028,162.991 -107.028,265.491 0,68.4805 16.6783,131.659 49.8509,189.316 33.1726,57.5089 78.8263,103.163 136.814,136.851 58.1716,33.6512 120.835,50.4768 187.843,50.4768zm-1.98814 -133.979c-66.161,0 -121.829,-23.1582 -166.82,-69.3273 -45.1751,-46.1691 -67.6706,-104.856 -67.6706,-176.172 0,-79.3417 28.3127,-142.152 85.1589,-188.321 44.1442,-36.1916 94.6578,-54.1954 151.835,-54.1954 64.5043,0 119.51,23.5264 164.832,70.3582 45.5064,46.8319 68.1492,104.488 68.1492,173.153 0,68.3333 -22.8268,126.174 -68.6646,173.484 -45.6537,47.3473 -101.322,71.0209 -166.82,71.0209z"
   id="glyph26" /> <glyph
   unicode="R"
   d="M91.0128 718.015l145.171 0c79.3049,0 135.967,-7.03214 169.655,-21.1701 33.8353,-14.1747 60.8225,-37.8484 81.3298,-70.6896 20.5073,-32.8044 30.8162,-71.6468 30.8162,-116.638 0,-47.2 -11.303,-86.6684 -33.8353,-118.368 -22.6428,-31.8103 -56.6621,-55.8153 -102.132,-71.9782l169.471 -319.171 -149.332 0 -161.334 304.002 -13.8066 0 0 -304.002 -136.004 0 0 718.015zm136.004 -281.028l43.3342 0c43.9969,0 74.1504,5.66989 90.8288,17.1938 16.4942,11.4871 24.815,30.4849 24.815,57.1408 0,15.6843 -4.16038,29.3435 -12.3339,41.0147 -8.17348,11.6711 -19.1451,19.9919 -32.9885,24.9991 -13.6593,5.15445 -38.9897,7.65804 -75.844,7.65804l-37.8116 0 0 -148.006z"
   id="glyph28" /> <glyph
   unicode="T"
   d="M12.0025 718.015l397.003 0 0 -135.01 -130.997 0 0 -583.005 -139.023 0 0 583.005 -126.984 0 0 135.01z"
   id="glyph30" /> <glyph
   unicode="W"
   d="M27.5027 718.015l133.832 0 104.157 -458.341 128.162 458.341 113.177 0 130.665 -458.341 104.009 458.341 133.979 0 -162.991 -718.015 -130.665 0 -132.322 464.158 -129.855 -464.158 -128.824 0 -163.322 718.015z"
   id="glyph32" /> <glyph
   unicode="Z"
   d="M43.9969 718.015l434.999 0 -256.323 -586.024 239.314 0 0 -131.991 -438.975 0 254.998 583.005 -234.012 0 0 135.01z"
   id="glyph34" /> </font> <font
   id="FontID0"
   font-variant="normal"
   style="fill-rule:nonzero"
   font-weight="700"
   vert-origin-x="512"
   vert-origin-y="768"
   vert-adv-y="1024"
   horiz-origin-x="0"
   horiz-origin-y="0"
   horiz-adv-x="1024"> <glyph
   unicode=" "
   d=""
   id="glyph43" /> <glyph
   unicode="A"
   d="M718.015 0l-156.18 0 -61.8534 162.991 -287.14 0 -59.4971 -162.991 -153.345 0 278.009 715.99 153.161 0 286.845 -715.99zm-265.012 284.01l-99.5177 264.976 -96.6459 -264.976 196.164 0z"
   id="glyph45" /> <glyph
   unicode="B"
   d="M73.0091 715.99l286.33 0c56.8462,0 99.0022,-2.3195 126.836,-6.99532 27.9813,-4.82309 52.8331,-14.6534 74.8132,-29.4908 22.0169,-15.0215 40.352,-34.8294 55.0053,-59.6812 14.6902,-24.815 22.0169,-52.8331 22.0169,-83.6494 0,-33.3567 -9.02029,-64.1729 -27.024,-92.0069 -18.0038,-27.9813 -42.4874,-48.82 -73.3036,-62.8475 43.4815,-12.8125 76.8013,-34.498 100.328,-65.167 23.3055,-30.669 34.9766,-66.6397 34.9766,-108.17 0,-32.6571 -7.47395,-64.3202 -22.6428,-95.1364 -15.1688,-30.8531 -35.8602,-55.5208 -62.1848,-74.0032 -26.1772,-18.3351 -58.503,-29.6749 -96.9773,-34.0194 -24.005,-2.50359 -82.1767,-4.16038 -174.331,-4.82309l-243.842 0 0 715.99zm144.987 -118.994l0 -164.979 94.6578 0c56.1835,0 91.1969,0.809985 104.856,2.46677 24.6677,2.83495 44.1442,11.3398 58.3189,25.5145 14.1747,14.1747 21.1701,32.6571 21.1701,55.6681 0,22.1641 -6.14852,39.9838 -18.3351,53.8272 -12.1498,13.8434 -30.3376,22.1641 -54.3426,24.9991 -14.322,1.65679 -55.484,2.50359 -123.339,2.50359l-82.9866 0zm0 -284.01l0 -192.003 134.016 0c51.9863,0 85.1589,1.50952 99.1495,4.34446 21.5014,4.01311 38.9897,13.512 52.5017,28.6808 13.512,15.3161 20.3233,35.4921 20.3233,61.0066 0,21.6487 -5.15445,39.8365 -15.6474,54.8213 -10.3457,14.9847 -25.5145,25.9932 -45.1751,32.8412 -19.6605,6.81124 -62.4793,10.3089 -128.346,10.3089l-116.822 0z"
   id="glyph47" /> <glyph
   unicode="C"
   d="M530.982 264.018l140.017 -43.0028c-21.5014,-78.8631 -57.3248,-137.366 -107.323,-175.693 -49.9982,-38.1429 -113.324,-57.3248 -190.162,-57.3248 -95.1732,0 -173.337,32.5098 -234.675,97.4927 -61.1539,65.0197 -91.8228,153.86 -91.8228,266.669 0,119.178 30.8162,211.848 92.3015,277.825 61.522,66.0138 142.521,99.0022 242.848,99.0022 87.6625,0 158.831,-25.9932 213.505,-77.8322 32.6571,-30.669 56.9935,-74.6659 73.3405,-132.138l-142.999 -34.0194c-8.50484,37.0016 -26.1772,66.3451 -53.0172,87.8465 -26.9872,21.5014 -59.6443,32.1417 -98.0082,32.1417 -53.1645,0 -96.3146,-18.9978 -129.303,-57.1408 -33.1726,-37.9957 -49.6668,-99.665 -49.6668,-185.008 0,-90.3501 16.3102,-154.854 48.82,-193.181 32.6571,-38.4743 74.9972,-57.6562 127.168,-57.6562 38.5111,0 71.6468,12.1498 99.3336,36.6702 27.6499,24.4836 47.6787,62.8475 59.6443,115.349z"
   id="glyph49" /> <glyph
   unicode="D"
   d="M73.0091 715.99l263.65 0c59.4971,0 104.856,-4.49173 136.004,-13.6593 41.8247,-12.3339 77.8322,-34.3139 107.654,-66.0138 30.0063,-31.479 52.6858,-70.1373 68.3333,-115.975 15.5002,-45.6905 23.3423,-102.169 23.3423,-169.176 0,-58.9816 -7.32668,-109.679 -21.98,-152.314 -17.8565,-52.1704 -43.3342,-94.3632 -76.5068,-126.505 -24.9991,-24.5205 -58.8344,-43.5183 -101.322,-57.1776 -31.8471,-10.1616 -74.3345,-15.1688 -127.683,-15.1688l-271.492 0 0 715.99zm144.987 -120.982l0 -474.025 107.507 0c40.1679,0 69.1801,2.35632 86.9997,6.84805 23.4896,5.85398 42.8187,15.8315 58.1716,29.8222 15.5002,14.0275 27.9813,37.0016 37.6643,68.996 9.83027,32.0312 14.6534,75.844 14.6534,131.181 0,55.3367 -4.82309,97.6768 -14.6534,127.352 -9.683,29.6381 -23.3423,52.649 -40.8306,69.3273 -17.5251,16.4942 -39.6893,27.834 -66.6765,33.6512 -19.9919,4.49173 -59.4971,6.84805 -118.147,6.84805l-64.6883 0z"
   id="glyph51" /> <glyph
   unicode="E"
   d="M73.0091 0l0 715.99 529.988 0 0 -120.982 -385.001 0 0 -159.015 358.013 0 0 -120.982 -358.013 0 0 -194.028 398.991 0 0 -120.982 -543.978 0z"
   id="glyph53" /> <glyph
   unicode="I"
   d="M68.0019 0l0 715.99 144.987 0 0 -715.99 -144.987 0z"
   id="glyph55" /> <glyph
   unicode="K"
   d="M74.9972 0l0 715.99 144.987 0 0 -317.146 292.184 317.146 194.323 0 -270.167 -278.819 284.194 -437.171 -187.033 0 -196.974 336.181 -116.527 -119.694 0 -216.487 -144.987 0z"
   id="glyph57" /> <glyph
   unicode="L"
   d="M76.9854 0l0 709.989 145.024 0 0 -589.006 359.007 0 0 -120.982 -504.032 0z"
   id="glyph59" /> <glyph
   unicode="N"
   d="M73.0091 0l0 715.99 140.311 0 294.687 -479.806 0 479.806 133.979 0 0 -715.99 -144.803 0 -290.196 470.675 0 -470.675 -133.979 0z"
   id="glyph61" /> <glyph
   unicode="O"
   d="M43.0028 353.669c0,73.0091 11.0084,134.347 32.8412,184.014 16.1629,36.4861 38.4743,69.3273 66.6397,98.3027 28.1654,29.0122 59.0184,50.5136 92.5224,64.6883 44.6596,18.8137 96.1673,28.3127 154.486,28.3127 105.666,0 190.015,-32.8044 253.525,-98.3027 63.3261,-65.6824 94.9891,-156.843 94.9891,-273.701 0,-115.828 -31.5158,-206.473 -94.3264,-271.824 -62.8475,-65.4983 -147.012,-98.1554 -252.163,-98.1554 -106.513,0 -191.341,32.5098 -254.188,97.6768 -62.8475,64.9829 -94.3264,154.67 -94.3264,268.989zm149 4.82309c0,-81.1458 18.8137,-142.668 56.3308,-184.677 37.517,-41.8247 85.1589,-62.8106 142.815,-62.8106 57.8403,0 105.188,20.8387 142.336,62.332 37.0016,41.6774 55.5208,104.009 55.5208,187.18 0,82.1398 -18.0038,143.478 -54.1585,183.83 -36.0075,40.4992 -83.8334,60.6384 -143.699,60.6384 -59.6443,0 -107.802,-20.4705 -144.325,-61.3011 -36.4861,-41.0147 -54.8213,-102.684 -54.8213,-185.192z"
   id="glyph63" /> <glyph
   unicode="P"
   d="M73.0091 0l0 715.99 231.84 0c87.8097,0 144.987,-3.49766 171.643,-10.6403 41.0147,-10.8612 75.3286,-34.1666 103.015,-70.1741 27.6499,-36.0075 41.4933,-82.508 41.4933,-139.501 0,-43.9969 -7.9894,-80.8512 -23.8209,-110.857 -16.0156,-29.9694 -36.1916,-53.4958 -60.6752,-70.6528 -24.5205,-17.0097 -49.5195,-28.3127 -74.85,-33.8353 -34.498,-6.81124 -84.3121,-10.3457 -149.663,-10.3457l-93.9951 0 0 -269.983 -144.987 0zm144.987 595.008l0 -204.006 78.8263 0c56.8462,0 94.6946,3.82902 113.84,11.3398 19.1819,7.47395 34.1666,19.1451 44.991,35.308 10.8612,16.0156 16.347,34.5348 16.347,55.8521 0,26.1772 -7.65804,47.6787 -22.8268,64.6515 -15.3529,17.0097 -34.498,27.6868 -58.0244,32.0312 -17.157,3.1663 -51.6549,4.82309 -103.641,4.82309l-69.5114 0z"
   id="glyph65" /> <glyph
   unicode="U"
   d="M73.0091 715.99l144.987 0 0 -387.983c0,-61.6693 1.84087,-101.506 5.33854,-119.657 6.14852,-29.3435 20.6546,-53.0172 43.6655,-70.6896 23.1582,-17.8197 54.674,-26.6559 94.6578,-26.6559 40.4992,0 71.1682,8.32075 91.8597,25.1463 20.6546,16.8624 32.9885,37.3329 37.1489,61.8534 4.16038,24.4836 6.33261,64.9829 6.33261,121.645l0 396.34 144.987 0 0 -376.496c0,-86.0057 -3.82902,-146.828 -11.6711,-182.32 -7.80531,-35.4921 -22.1641,-65.4983 -43.1501,-90.0188 -20.8387,-24.4836 -48.82,-43.8128 -83.8334,-58.3189 -35.1607,-14.5061 -80.8144,-21.8328 -137.329,-21.8328 -68.186,0 -119.841,7.84213 -155.002,23.6736 -35.1607,15.8315 -62.9947,36.3389 -83.5021,61.6693 -20.5073,25.3304 -33.8353,51.6549 -40.3152,79.489 -9.49891,41.0147 -14.1747,101.653 -14.1747,181.842l0 382.313z"
   id="glyph67" /> <glyph
   unicode="Y"
   d="M260.999 0l0 301.351 -262.509 414.639 169.508 0 169.324 -283.495 164.832 283.495 166.341 0 -262.509 -415.67 0 -300.32 -144.987 0z"
   id="glyph69" /> <glyph
   unicode="Z"
   d="M10.0144 0l0 130.003 377.306 465.005 -334.303 0 0 120.982 523.987 0 0 -111.999 -391.996 -483.009 406.981 0 0 -120.982 -581.974 0z"
   id="glyph71" /> <glyph
   unicode="Ł"
   d="M80.9985 358.161l0 357.829 144.987 0 0 -236.479 160.009 133.979 0 -116.822 -160.009 -133.353 0 -242.333 359.007 0 0 -120.982 -503.995 0 0 242.333 -75.9913 -63.3261 0 115.496 75.9913 63.6575z"
   id="glyph73" /> </font>
</defs>
</svg>
